<?xml version="1.0" standalone="no"?>
<!DOCTYPE svg PUBLIC "-//W3C//DTD SVG 1.1//EN" "http://www.w3.org/Graphics/SVG/1.1/DTD/svg11.dtd" >
<svg xmlns="http://www.w3.org/2000/svg" xmlns:xlink="http://www.w3.org/1999/xlink" version="1.1">
<metadata></metadata>
<defs>
<font id="zephyr1-regular" horiz-adv-x="2211" >
<font-face units-per-em="2048" ascent="1966" descent="-82" />
<missing-glyph horiz-adv-x="819" />
<glyph horiz-adv-x="0" />
<glyph horiz-adv-x="682" />
<glyph unicode=" "  horiz-adv-x="819" />
<glyph unicode="&#x09;" horiz-adv-x="819" />
<glyph unicode="&#xa0;" horiz-adv-x="819" />
<glyph unicode="!" horiz-adv-x="817" d="M82 1698q0 137 97 243.5t231 106.5q133 0 229 -106.5t96 -243.5q0 -88 -64 -312t-143.5 -416t-117.5 -192q-39 0 -119 192t-144.5 416t-64.5 312zM121 287q0 -119 84.5 -203t202.5 -84t202 84t84 203t-84 202.5t-202 83.5q-119 0 -203 -84t-84 -202z" />
<glyph unicode="&#x22;" horiz-adv-x="1570" d="M82 1802q0 -46 29.5 -123t62 -148.5t55.5 -143t9.5 -125t-74.5 -74.5q117 0 223 45.5t182.5 122t122 182.5t45.5 223h-2q2 14 2 41q0 135 -96 231.5t-231 96.5t-231.5 -96.5t-96.5 -231.5zM834 1802q0 -40 21 -101t48.5 -119.5t52 -123.5t35.5 -116.5t-7 -93.5t-69 -60 q156 0 288 76.5t209 208.5t77 288h-2q2 14 2 41q0 135 -96.5 231.5t-231.5 96.5t-231 -96.5t-96 -231.5z" />
<glyph unicode="&#x26;" horiz-adv-x="2129" d="M0 532q0 -113 47 -207.5t141 -168t250.5 -115t360.5 -41.5q-95 86 -160.5 230t-65.5 302q0 159 65.5 303t160.5 230q-204 0 -360.5 -41.5t-250.5 -115t-141 -168.5t-47 -208zM41 1518q0 -96 41.5 -176t129 -143t237 -98.5t350.5 -35.5q-79 73 -132 197.5t-53 259.5 q0 136 52.5 254t132.5 190q-201 0 -350.5 -34.5t-237 -96.5t-129 -141t-41.5 -176zM881 492q112 79 198 114q40 16 74 -8q35 -21 35 -66q0 -158 -65 -302t-160 -230q163 0 296 27t225 74.5t154.5 114t92 144t30.5 166.5q104 -34 205 -34q99 0 182 32.5t139.5 87.5t95.5 129 t57 155.5t18 168.5q-20 -14 -55 -41t-53.5 -40t-57.5 -32t-78.5 -28t-103.5 -16t-144 -7q-72 0 -129 17t-98.5 41t-87 48t-116.5 41t-163 17q-97 0 -179 -32.5t-138.5 -87.5t-96.5 -128.5t-58.5 -155.5t-18.5 -169zM963 1638q0 -135 96 -231t231 -96t231.5 96t96.5 231 q0 89 -55 155t-150.5 102.5t-207.5 53.5t-242 17q56 -40 79.5 -64.5t22.5 -38t-16.5 -30.5t-34.5 -35.5t-35 -61t-16 -98.5z" />
<glyph unicode="'" horiz-adv-x="819" d="M82 1802q0 -46 29.5 -123t62 -148.5t55.5 -143t9.5 -125t-74.5 -74.5q117 0 223 45.5t182.5 122t122 182.5t45.5 223h-2q2 14 2 41q0 135 -96 231.5t-231 96.5t-231.5 -96.5t-96.5 -231.5z" />
<glyph unicode="," horiz-adv-x="819" d="M82 328q0 -132 91 -227t220 -101q-38 -94 -98 -169t-131 -118q156 0 288 77t208.5 209t76.5 288h-2q2 14 2 41q0 135 -96 231t-231 96t-231.5 -96t-96.5 -231z" />
<glyph unicode="-" horiz-adv-x="983" d="M82 776q0 170 120 291t290 121h409q0 -170 -120 -291t-289 -121h-410z" />
<glyph unicode="." horiz-adv-x="819" d="M82 328q0 -135 96.5 -231.5t231.5 -96.5t231 96.5t96 231.5t-96 231t-231 96t-231.5 -96t-96.5 -231z" />
<glyph unicode="0" horiz-adv-x="1966" d="M82 983q0 206 52.5 383t152.5 311.5t258 211.5t356 77q-63 -57 -108.5 -139.5t-72 -171t-41.5 -206t-19.5 -222.5t-4.5 -244t4.5 -244t19.5 -222.5t41.5 -206t72 -171t108.5 -139.5q-198 0 -356 77t-258 211.5t-152.5 311.5t-52.5 383zM1065 0q63 57 108.5 139.5t72 171 t41.5 206t19.5 222.5t4.5 244t-4.5 244t-19.5 222.5t-41.5 206t-72 171t-108.5 139.5q198 0 355.5 -77t257.5 -211.5t153 -311.5t53 -383t-53 -383t-153 -311.5t-257.5 -211.5t-355.5 -77z" />
<glyph unicode="1" horiz-adv-x="1228" d="M164 1638q101 0 173.5 -72t72.5 -173v-1194q0 -117 -82 -199h737q-82 82 -82 199v1650q0 117 82 199z" />
<glyph unicode="2" horiz-adv-x="1740" d="M82 0q111 81 217.5 122.5t273.5 41.5q67 0 127 -17t107.5 -41t96.5 -48t116.5 -41t146.5 -17q123 0 220 49t155 131.5t87.5 182.5t29.5 210q-18 -13 -54.5 -41t-54 -40t-57.5 -31.5t-79 -28t-102.5 -15.5t-144.5 -7q-72 0 -129.5 17t-99 41t-86.5 47.5t-116 40.5t-163 17 q-98 0 -180 -32.5t-138.5 -87.5t-96 -128.5t-58 -155.5t-18.5 -169zM82 1638q0 89 55 154.5t150.5 102t207.5 54t242 17.5q-56 -40 -79.5 -64.5t-22.5 -38.5t16.5 -31t34.5 -35.5t35 -60.5t16 -98q0 -135 -96 -231t-231 -96q-136 0 -232 96t-96 231zM573 737q8 7 49.5 43.5 t72.5 65t82 80t89.5 97.5t81.5 109t71.5 122t47 129.5t18.5 138.5q0 135 -52.5 253t-131.5 191q201 0 350.5 -34.5t237 -96.5t129 -141t41.5 -176q0 -145 -60 -271.5t-164 -218.5t-241.5 -158.5t-296 -99.5t-324.5 -33z" />
<glyph unicode="3" horiz-adv-x="1781" d="M82 328q0 -89 55 -154.5t150.5 -102t207.5 -54t242 -17.5q-56 40 -79.5 64.5t-22.5 38.5t16.5 31t34.5 35.5t35 60.5t16 98q0 135 -96 231t-231 96q-136 0 -232 -96t-96 -231zM82 1638q0 89 55 154.5t150.5 102t207.5 54t242 17.5q-56 -40 -79.5 -64.5t-22.5 -38.5 t16.5 -31t34.5 -35.5t35 -60.5t16 -98q0 -135 -96 -231t-231 -96q-136 0 -232 96t-96 231zM901 0q95 86 160 230t65 302t-65.5 302.5t-159.5 230.5q204 0 360.5 -41.5t250.5 -115t141 -168.5t47 -208t-47 -207.5t-141.5 -168t-250.5 -115t-360 -41.5zM901 1065 q78 72 131 196.5t53 260.5q0 135 -52.5 253t-131.5 191q201 0 350.5 -34.5t237 -96.5t129 -141t41.5 -176t-42 -177t-129.5 -143t-237 -98t-349.5 -35z" />
<glyph unicode="4" horiz-adv-x="1802" d="M41 655h860q-83 48 -139 133l590 1178h-656zM983 0h737q-82 82 -82 199v989l-573 -205v-784q0 -114 -82 -199z" />
<glyph unicode="5" horiz-adv-x="1863" d="M82 328q0 -89 55 -154.5t150.5 -102t207.5 -54t242 -17.5q-56 40 -79.5 64.5t-22.5 38.5t16.5 31t34.5 35.5t35 60.5t16 98q0 135 -96 231t-231 96q-136 0 -232 -96t-96 -231zM123 1065h512l160 885q212 -50 393.5 -171.5t308.5 -299.5l121 -168l164 655h-1065h-430z M881 1065q121 0 217 -3.5t175 -14t137.5 -21t104 -34t76 -43t51.5 -57.5t32.5 -67.5t17 -84t7 -96t1.5 -112.5q0 -113 -47 -207.5t-141.5 -168t-250.5 -115t-360 -41.5q95 86 160 230t65 302q0 83 -5.5 149.5t-13.5 112t-23.5 82.5t-29 58.5t-37.5 42t-40.5 30.5t-47 28 t-48.5 30z" />
<glyph unicode="6" horiz-adv-x="1945" d="M82 983q0 206 52.5 383t152.5 311.5t258 211.5t356 77q-63 -57 -108.5 -139.5t-72 -171t-41.5 -206t-19.5 -222.5t-4.5 -244t4.5 -244t19.5 -222.5t41.5 -206t72 -171t108.5 -139.5q-198 0 -356 77t-258 211.5t-152.5 311.5t-52.5 383zM881 1065q203 0 350.5 -11t259 -38 t182 -66.5t114 -101.5t60.5 -137t17 -179q0 -113 -47 -207.5t-141.5 -168t-250.5 -115t-360 -41.5q95 86 160 230t65 302q0 108 -21.5 190.5t-53.5 129t-79.5 83t-88 53t-90 38t-76.5 39.5zM1065 1638q0 -135 96 -231t232 -96q135 0 231 96t96 231q0 89 -55 154.5 t-150.5 102t-207.5 54t-242 17.5q56 -40 79.5 -64.5t22.5 -38.5t-16.5 -31t-34.5 -35.5t-35 -60.5t-16 -98z" />
<glyph unicode="7" horiz-adv-x="1843" d="M82 1966l328 -655l22 73q68 198 212 351t339 231h-901zM164 0h655l983 1966h-655z" />
<glyph unicode="8" horiz-adv-x="1884" d="M82 535q0 -113 47 -207.5t141 -168.5t250.5 -115.5t360.5 -41.5q-95 86 -160.5 230.5t-65.5 302.5q0 89 -79 154t-209 69q-47 2 -83.5 -1t-76 -16t-65.5 -37t-43 -67t-17 -102zM82 1395q0 -79 39 -150t105 -127t152 -107t181.5 -96t190.5 -88.5t181 -89t152.5 -93.5 t106 -107t39.5 -123q0 -82 -10 -149.5t-26.5 -109t-36.5 -72.5t-39.5 -46t-36 -23.5t-26.5 -9.5l-10 -2q21 0 56 2.5t111 15t148 33.5t154.5 65t143.5 102t102.5 151t42.5 207q1 78 -38 148.5t-105 125t-152 105t-181 95t-190.5 88t-181.5 89.5t-153 94.5t-106.5 109 t-39.5 126.5q-1 110 14 192t34 121t46 63t40.5 28t27.5 5q-18 -1 -39.5 -2.5t-74 -8.5t-101 -18t-113 -33t-118.5 -50t-109 -72.5t-93 -98t-62.5 -128.5t-24.5 -162zM983 1968q80 -72 132 -190t52 -254q0 -62 23.5 -132t62.5 -106q71 -65 205 -69q31 0 61 -0.5t58.5 6t53 17 t45 33.5t35 54.5t22.5 80.5t8 112q0 97 -41.5 176t-129 141t-237 96.5t-350.5 34.5z" />
<glyph unicode="9" horiz-adv-x="1904" d="M82 1518q0 -453 922 -453q-47 18 -89 41t-91.5 62.5t-85 87t-59.5 117t-24 149.5q0 136 52.5 254t132.5 190q-163 0 -292 -23t-215 -62.5t-143.5 -97t-82.5 -123t-25 -142.5zM184 328q0 -89 55 -154.5t151 -102t208 -54t242 -17.5q-56 40 -79.5 64.5t-22.5 38.5t16.5 31 t34.5 35.5t35 60.5t16 98q0 135 -96.5 231t-231.5 96q-136 0 -232 -96t-96 -231zM1004 0q78 71 129 174.5t75 239.5t32.5 264.5t8.5 304.5t-8.5 304.5t-32.5 264.5t-75 239.5t-129 174.5q198 0 355.5 -77t257.5 -211.5t153 -311.5t53 -383t-53 -383t-153 -311.5 t-257.5 -211.5t-355.5 -77z" />
<glyph unicode="?" horiz-adv-x="1740" d="M82 1638q0 89 55 154.5t150.5 102t207.5 54t242 17.5q-56 -40 -79.5 -64.5t-22.5 -38.5t16.5 -31t34.5 -35.5t35 -60.5t16 -98q0 -135 -96 -231t-231 -96t-231.5 96t-96.5 231zM584 287q0 -119 84 -203t202 -84t202.5 84t84.5 203q0 118 -84 202t-203 84 q-118 0 -202 -83.5t-84 -202.5zM707 737q33 30 73.5 80t88 128t86 164.5t64 196t25.5 216.5q0 315 -143 444q201 0 350.5 -34.5t237 -96.5t129 -141t41.5 -176q0 -76 -25 -148.5t-64.5 -131t-99.5 -114t-120 -98t-136 -83.5t-136.5 -68.5t-133 -55t-115 -42t-91.5 -30.5 q-22 -7 -31 -10z" />
<glyph unicode="A" d="M41 0h655l-47 63q-196 261 -278 586l-2 6q0 -2 -2 -6q-81 -323 -279 -586zM573 901q179 -66 347 -129q140 -53 243 -159.5t150 -247.5l121 -365h737q-35 37 -68 70q-54 51 -80 127l-589 1769h-656l-205 -655q54 86 107 170q81 131 180 239l273 -819h-560z" />
<glyph unicode="B" horiz-adv-x="2027" d="M164 0h655v1966h-655q82 -85 82 -199v-1568q0 -114 -82 -199zM1147 0q95 86 160 230t65 302t-65.5 302.5t-159.5 230.5q204 0 360.5 -41.5t250.5 -115t141 -168.5t47 -208t-47 -207.5t-141.5 -168t-250.5 -115t-360 -41.5zM1147 1065q78 72 131 196.5t53 260.5 q0 135 -52.5 253t-131.5 191q201 0 350.5 -34.5t237 -96.5t129 -141t41.5 -176t-42 -177t-129.5 -143t-237 -98t-349.5 -35z" />
<glyph unicode="C" horiz-adv-x="2129" d="M82 983q0 -200 78 -382t209.5 -313.5t313.5 -209.5t382 -78q-174 158 -292 423t-118 560t118 560t292 423q-200 0 -382 -78t-313.5 -209.5t-209.5 -313.5t-78 -382zM1311 0q86 69 178 143q231 184 383 437l94 157v-655q-63 -17 -133 -33q-192 -49 -397 -49h-125z M1311 1638q0 -135 95.5 -231t231.5 -96q135 0 231.5 96t96.5 231q0 89 -55 154.5t-150.5 102t-207.5 54t-242 17.5q56 -40 79.5 -64.5t22.5 -38.5t-16.5 -31t-34.5 -35.5t-35 -60.5t-16 -98z" />
<glyph unicode="D" d="M164 0h655v1966h-655q82 -85 82 -199v-1568q0 -114 -82 -199zM1147 0q174 158 291.5 423t117.5 560t-117.5 560t-291.5 423q199 0 381 -78t314 -209.5t210 -313.5t78 -382t-78 -382t-210 -313.5t-314 -209.5t-381 -78z" />
<glyph unicode="E" horiz-adv-x="1884" d="M164 0h655v1966h-655q82 -85 82 -199v-1568q0 -114 -82 -199zM1065 0q80 60 160 121q166 126 297 287l198 247v-655h-655zM1065 983q24 -6 59 -14q127 -32 229.5 -114.5t162.5 -199.5v656q-60 -118 -162.5 -199.5t-229.5 -112.5zM1065 1966q80 -60 160 -121 q162 -120 297 -286l198 -248v655h-655z" />
<glyph unicode="F" horiz-adv-x="1802" d="M164 0h655v1966h-655q82 -85 82 -199v-1568q0 -114 -82 -199zM1065 983q24 -6 59 -14q127 -32 229.5 -114.5t162.5 -199.5v656q-60 -118 -162.5 -199.5t-229.5 -112.5zM1065 1966q80 -60 160 -121q162 -120 297 -286l198 -248v655h-655z" />
<glyph unicode="G" horiz-adv-x="2129" d="M82 983q0 -200 78 -382t209.5 -313.5t313.5 -209.5t382 -78q-174 158 -292 423t-118 560t118 560t292 423q-200 0 -382 -78t-313.5 -209.5t-209.5 -313.5t-78 -382zM1229 901q75 -37 119.5 -109t44.5 -155v-438q0 -114 -82 -199l235 59q91 21 178 56l242 90v696h-737z M1311 1638q0 -135 95.5 -231t231.5 -96q135 0 231.5 96t96.5 231q0 89 -55 154.5t-150.5 102t-207.5 54t-242 17.5q56 -40 79.5 -64.5t22.5 -38.5t-16.5 -31t-34.5 -35.5t-35 -60.5t-16 -98z" />
<glyph unicode="H" horiz-adv-x="2375" d="M164 0h737q-82 82 -82 199v1568q0 117 82 199h-737q82 -82 82 -199v-1568q0 -117 -82 -199zM983 1065q198 -74 360 -135q96 -35 154.5 -119.5t58.5 -187.5v-424q0 -118 -81 -199h737q-82 82 -82 199v1568q0 117 82 199h-737q81 -81 81 -199v-702h-573z" />
<glyph unicode="I" horiz-adv-x="1064" d="M164 0h737q-82 82 -82 199v1568q0 117 82 199h-737q82 -82 82 -199v-1568q0 -117 -82 -199z" />
<glyph unicode="J" horiz-adv-x="1966" d="M82 575q0 -91 57 -193t147 -186t211.5 -139t239.5 -55q-65 46 -88 97q-15 34 -15 69q0 18 4 37q12 55 33.5 108t43.5 125.5t22 136.5q0 135 -96 231.5t-231 96.5q-136 0 -232 -96.5t-96 -231.5zM901 2q159 0 300.5 49.5t250 139.5t187.5 211.5t120.5 270t42.5 310.5v789 q0 114 82 196h-737q82 -85 82 -196v-787q0 -318 -84.5 -578t-243.5 -405z" />
<glyph unicode="K" horiz-adv-x="2320" d="M164 0h737q-82 82 -82 199v1767h-655q82 -85 82 -199v-1568q0 -114 -82 -199zM1145 1065l356 -1065h737l-69 68q-59 62 -78 129l-236 702q-115 -55 -241 -55q-52 0 -106 10q-184 32 -316 164zM1235 1966q45 -47 104 -106q125 -124 182 -290q41 -119 41 -244q0 -48 -6 -97 q71 111 132 211q106 167 231 289l238 237h-922z" />
<glyph unicode="L" horiz-adv-x="1884" d="M164 0h655v1966h-655q82 -85 82 -199v-1568q0 -114 -82 -199zM1065 0q80 60 160 121q166 126 297 287l198 247v-655h-655z" />
<glyph unicode="M" horiz-adv-x="3194" d="M82 0l194 260q58 79 95 139q156 266 202 336q-2 0 -2 -6q-18 -90 -18 -180q0 -103 23 -203q43 -190 161 -346h-655zM492 1966h737l571 -1718q104 113 182 237l107 170l-205 -655h-655q-477 1428 -590 1769q-22 68 -80 129zM573 735v2v-2zM2294 0q82 85 82 199v1118 q80 320 280 586l47 63h328q-82 -82 -82 -199v-1568q0 -117 82 -199h-737z" />
<glyph unicode="N" d="M41 0h655l-47 63q-197 262 -278 586l-2 6q0 -2 -2 -6q-80 -322 -279 -586zM205 1966l127 -127q36 -36 61 -84l877 -1755h573v819q-10 -37 -22 -88q-42 -166 -109 -305l-770 1540h-737zM1516 1966q18 -26 47 -63q197 -262 278 -586l2 -6q0 2 2 6q80 322 279 586l47 63 h-655z" />
<glyph unicode="O" horiz-adv-x="2457" d="M82 983q0 200 78 382t209.5 313.5t313.5 209.5t382 78q-174 -158 -292 -423t-118 -560t118 -560t292 -423q-200 0 -382 78t-313.5 209.5t-209.5 313.5t-78 382zM1393 0q174 158 291.5 423t117.5 560t-117.5 560t-291.5 423q200 0 382 -78t313.5 -209.5t209.5 -313.5 t78 -382t-78 -382t-209.5 -313.5t-313.5 -209.5t-382 -78z" />
<glyph unicode="P" horiz-adv-x="2048" d="M164 0h737q-82 82 -82 199v1767h-655q82 -85 82 -199v-1568q0 -114 -82 -199zM1147 819q103 94 174.5 248.5t71.5 325.5q0 170 -71.5 324t-174.5 249q209 0 369 -44.5t256.5 -123.5t145 -181t48.5 -224q0 -121 -48.5 -223t-145 -181.5t-256.5 -124.5t-369 -45z" />
<glyph unicode="Q" horiz-adv-x="2580" d="M82 983q0 200 78 382t209.5 313.5t313.5 209.5t382 78q-174 -158 -292 -423t-118 -560t118 -560t292 -423q-200 0 -382 78t-313.5 209.5t-209.5 313.5t-78 382zM1065 -573q90 149 287 228t450 79q150 0 286.5 58t235.5 157t157.5 235.5t58.5 286.5q-90 -148 -288 -227.5 t-448 -79.5h-2q-150 0 -286.5 -58t-235.5 -157t-157 -235.5t-58 -286.5zM1393 1966q174 -158 291.5 -423t117.5 -560q0 -370 -188 -700q88 24 188 24h2q186 0 340 43q110 133 171 294.5t61 338.5q0 200 -78 382t-210 313.5t-314 209.5t-381 78z" />
<glyph unicode="R" horiz-adv-x="2320" d="M164 0h737q-82 82 -82 199v1767h-655q82 -85 82 -199v-1568q0 -114 -82 -199zM1145 1065q79 71 131.5 195.5t52.5 261.5q0 136 -52 254t-132 190q163 0 292 -23t215 -62.5t143.5 -97t82.5 -123t25 -142.5t-25.5 -143t-82.5 -124t-143.5 -98.5t-215.5 -64t-291 -23.5z M1145 1065l356 -1065h737l-69 68q-59 62 -78 129l-236 702q-115 -55 -241 -55q-52 0 -106 10q-184 32 -316 164z" />
<glyph unicode="S" horiz-adv-x="2129" d="M164 2v737q55 -86 123 -184q201 -307 520 -498l94 -55q-116 21 -237 39q-86 15 -172 15q-165 0 -328 -54zM164 1395q0 85 28 159t74 127t110.5 97.5t131 73t142 51t137 34t123.5 19t93.5 9.5t53.5 3q-13 -1 -28 -6.5t-40 -30.5t-43 -65t-32 -120q-13 -75 -13 -173v-14 q0 -66 37 -126.5t99 -109t142 -94.5t168.5 -89.5t176.5 -88t168 -95t142 -104.5q61 -56 97 -126q35 -69 35 -144q0 -116 -50 -211q-50 -93 -123 -151t-171.5 -102t-184.5 -65t-176.5 -33.5t-131.5 -15t-64 -2.5q3 0 9 1.5t23 10t32.5 23.5t34 46t32 72.5t23.5 109t10 149.5 q0 64 -36.5 123t-98 107t-141.5 93.5t-168.5 89t-177 88.5t-168.5 96t-141.5 107t-97.5 127t-36 150zM1057 1968h6h2h-8zM1229 1968l235 -39q86 -15 173 -15l329 54v-737q-57 86 -125 184q-201 307 -520 498z" />
<glyph unicode="T" d="M82 1311v655h573l-71 -53q-254 -190 -422 -467zM737 0h738q-82 82 -82 199v1767h-574v-1767q0 -114 -82 -199zM1556 1966l70 -53q254 -190 422 -467l82 -135v655h-574z" />
<glyph unicode="U" horiz-adv-x="2293" d="M82 1966q82 -82 82 -199v-788q1 -202 66.5 -381t181 -311.5t285.5 -209.5t368 -77q-159 145 -243.5 405t-84.5 578v784q0 117 82 199h-737zM1229 0q198 0 368 77t285.5 209.5t181 311.5t66.5 381v788q0 117 82 199h-737q81 -81 81 -199v-784q0 -318 -84 -578t-243 -405z " />
<glyph unicode="V" horiz-adv-x="2293" d="M82 1966q35 -37 68 -70q53 -50 79 -127l590 -1769h656l204 655q-53 -86 -106 -170q-81 -131 -180 -239l-574 1720h-737zM1556 1966q19 -26 48 -63q196 -261 278 -586l2 -6q0 2 2 6q81 323 279 586l47 63h-656z" />
<glyph unicode="W" horiz-adv-x="3522" d="M82 1966l68 -68q56 -60 79 -129l590 -1769h656l204 655q-55 -86 -106 -170q-78 -124 -182 -237l-572 1718h-737zM1393 1966l67 -68q58 -61 80 -129l590 -1769h655l205 655q-55 -86 -106 -170q-76 -121 -183 -237l-571 1718h-737zM2785 1966q117 -157 159 -347 q22 -100 23 -201q0 -90 -18 -181v-8q131 219 201 338q42 68 94 139l197 260h-656z" />
<glyph unicode="X" horiz-adv-x="2048" d="M41 0l195 260q52 71 94 139q156 266 202 336q-2 0 -2 -6q-18 -90 -18 -180q0 -103 23 -203q43 -190 161 -346h-655zM123 1966h737q734 -1471 877 -1755q25 -48 61 -84l127 -127h-737q-736 1471 -879 1755q-19 42 -61 84zM532 735v2v-2zM1352 1966h655 q-125 -164 -197 -260q-52 -71 -94 -139l-200 -338v8q18 91 18 181q0 101 -22 201q-42 190 -160 347z" />
<glyph unicode="Y" horiz-adv-x="2048" d="M82 1968q78 -78 125 -127q42 -42 61 -84l387 -772v-784q0 -114 -82 -199h738q-82 82 -82 199v600q0 76 53.5 130t128.5 54h64q-61 30 -103 59q-141 96 -215 248l-338 676h-737zM1311 1968q117 -157 159 -347q23 -100 23 -201q0 -90 -18 -181v-8q130 219 200 338 q42 68 94 139l197 260h-655z" />
<glyph unicode="Z" horiz-adv-x="1966" d="M164 0h655l983 1966h-655zM164 1311v655h655q-82 -60 -162 -121q-162 -120 -297 -286zM1147 0q80 60 160 121q166 126 297 287l198 247v-655h-655z" />
<glyph unicode="a" d="M41 0h655l-47 63q-196 261 -278 586l-2 6q0 -2 -2 -6q-81 -323 -279 -586zM573 901q179 -66 347 -129q140 -53 243 -159.5t150 -247.5l121 -365h737q-35 37 -68 70q-54 51 -80 127l-589 1769h-656l-205 -655q54 86 107 170q81 131 180 239l273 -819h-560z" />
<glyph unicode="b" horiz-adv-x="2027" d="M164 0h655v1966h-655q82 -85 82 -199v-1568q0 -114 -82 -199zM1147 0q95 86 160 230t65 302t-65.5 302.5t-159.5 230.5q204 0 360.5 -41.5t250.5 -115t141 -168.5t47 -208t-47 -207.5t-141.5 -168t-250.5 -115t-360 -41.5zM1147 1065q78 72 131 196.5t53 260.5 q0 135 -52.5 253t-131.5 191q201 0 350.5 -34.5t237 -96.5t129 -141t41.5 -176t-42 -177t-129.5 -143t-237 -98t-349.5 -35z" />
<glyph unicode="c" horiz-adv-x="2129" d="M82 983q0 -200 78 -382t209.5 -313.5t313.5 -209.5t382 -78q-174 158 -292 423t-118 560t118 560t292 423q-200 0 -382 -78t-313.5 -209.5t-209.5 -313.5t-78 -382zM1311 0q86 69 178 143q231 184 383 437l94 157v-655q-63 -17 -133 -33q-192 -49 -397 -49h-125z M1311 1638q0 -135 95.5 -231t231.5 -96q135 0 231.5 96t96.5 231q0 89 -55 154.5t-150.5 102t-207.5 54t-242 17.5q56 -40 79.5 -64.5t22.5 -38.5t-16.5 -31t-34.5 -35.5t-35 -60.5t-16 -98z" />
<glyph unicode="d" d="M164 0h655v1966h-655q82 -85 82 -199v-1568q0 -114 -82 -199zM1147 0q174 158 291.5 423t117.5 560t-117.5 560t-291.5 423q199 0 381 -78t314 -209.5t210 -313.5t78 -382t-78 -382t-210 -313.5t-314 -209.5t-381 -78z" />
<glyph unicode="e" horiz-adv-x="1884" d="M164 0h655v1966h-655q82 -85 82 -199v-1568q0 -114 -82 -199zM1065 0q80 60 160 121q166 126 297 287l198 247v-655h-655zM1065 983q24 -6 59 -14q127 -32 229.5 -114.5t162.5 -199.5v656q-60 -118 -162.5 -199.5t-229.5 -112.5zM1065 1966q80 -60 160 -121 q162 -120 297 -286l198 -248v655h-655z" />
<glyph unicode="f" horiz-adv-x="1802" d="M164 0h655v1966h-655q82 -85 82 -199v-1568q0 -114 -82 -199zM1065 983q24 -6 59 -14q127 -32 229.5 -114.5t162.5 -199.5v656q-60 -118 -162.5 -199.5t-229.5 -112.5zM1065 1966q80 -60 160 -121q162 -120 297 -286l198 -248v655h-655z" />
<glyph unicode="g" horiz-adv-x="2129" d="M82 983q0 -200 78 -382t209.5 -313.5t313.5 -209.5t382 -78q-174 158 -292 423t-118 560t118 560t292 423q-200 0 -382 -78t-313.5 -209.5t-209.5 -313.5t-78 -382zM1229 901q75 -37 119.5 -109t44.5 -155v-438q0 -114 -82 -199l235 59q91 21 178 56l242 90v696h-737z M1311 1638q0 -135 95.5 -231t231.5 -96q135 0 231.5 96t96.5 231q0 89 -55 154.5t-150.5 102t-207.5 54t-242 17.5q56 -40 79.5 -64.5t22.5 -38.5t-16.5 -31t-34.5 -35.5t-35 -60.5t-16 -98z" />
<glyph unicode="h" horiz-adv-x="2375" d="M164 0h737q-82 82 -82 199v1568q0 117 82 199h-737q82 -82 82 -199v-1568q0 -117 -82 -199zM983 1065q198 -74 360 -135q96 -35 154.5 -119.5t58.5 -187.5v-424q0 -118 -81 -199h737q-82 82 -82 199v1568q0 117 82 199h-737q81 -81 81 -199v-702h-573z" />
<glyph unicode="i" horiz-adv-x="1064" d="M164 0h737q-82 82 -82 199v1568q0 117 82 199h-737q82 -82 82 -199v-1568q0 -117 -82 -199z" />
<glyph unicode="j" horiz-adv-x="1966" d="M82 575q0 -91 57 -193t147 -186t211.5 -139t239.5 -55q-65 46 -88 97q-15 34 -15 69q0 18 4 37q12 55 33.5 108t43.5 125.5t22 136.5q0 135 -96 231.5t-231 96.5q-136 0 -232 -96.5t-96 -231.5zM901 2q159 0 300.5 49.5t250 139.5t187.5 211.5t120.5 270t42.5 310.5v789 q0 114 82 196h-737q82 -85 82 -196v-787q0 -318 -84.5 -578t-243.5 -405z" />
<glyph unicode="k" horiz-adv-x="2320" d="M164 0h737q-82 82 -82 199v1767h-655q82 -85 82 -199v-1568q0 -114 -82 -199zM1145 1065l356 -1065h737l-69 68q-59 62 -78 129l-236 702q-115 -55 -241 -55q-52 0 -106 10q-184 32 -316 164zM1235 1966q45 -47 104 -106q125 -124 182 -290q41 -119 41 -244q0 -48 -6 -97 q71 111 132 211q106 167 231 289l238 237h-922z" />
<glyph unicode="l" horiz-adv-x="1884" d="M164 0h655v1966h-655q82 -85 82 -199v-1568q0 -114 -82 -199zM1065 0q80 60 160 121q166 126 297 287l198 247v-655h-655z" />
<glyph unicode="m" horiz-adv-x="3194" d="M82 0l194 260q58 79 95 139q156 266 202 336q-2 0 -2 -6q-18 -90 -18 -180q0 -103 23 -203q43 -190 161 -346h-655zM492 1966h737l571 -1718q104 113 182 237l107 170l-205 -655h-655q-477 1428 -590 1769q-22 68 -80 129zM573 735v2v-2zM2294 0q82 85 82 199v1118 q80 320 280 586l47 63h328q-82 -82 -82 -199v-1568q0 -117 82 -199h-737z" />
<glyph unicode="n" d="M41 0h655l-47 63q-197 262 -278 586l-2 6q0 -2 -2 -6q-80 -322 -279 -586zM205 1966l127 -127q36 -36 61 -84l877 -1755h573v819q-10 -37 -22 -88q-42 -166 -109 -305l-770 1540h-737zM1516 1966q18 -26 47 -63q197 -262 278 -586l2 -6q0 2 2 6q80 322 279 586l47 63 h-655z" />
<glyph unicode="o" horiz-adv-x="2457" d="M82 983q0 200 78 382t209.5 313.5t313.5 209.5t382 78q-174 -158 -292 -423t-118 -560t118 -560t292 -423q-200 0 -382 78t-313.5 209.5t-209.5 313.5t-78 382zM1393 0q174 158 291.5 423t117.5 560t-117.5 560t-291.5 423q200 0 382 -78t313.5 -209.5t209.5 -313.5 t78 -382t-78 -382t-209.5 -313.5t-313.5 -209.5t-382 -78z" />
<glyph unicode="p" horiz-adv-x="2048" d="M164 0h737q-82 82 -82 199v1767h-655q82 -85 82 -199v-1568q0 -114 -82 -199zM1147 819q103 94 174.5 248.5t71.5 325.5q0 170 -71.5 324t-174.5 249q209 0 369 -44.5t256.5 -123.5t145 -181t48.5 -224q0 -121 -48.5 -223t-145 -181.5t-256.5 -124.5t-369 -45z" />
<glyph unicode="q" horiz-adv-x="2580" d="M82 983q0 200 78 382t209.5 313.5t313.5 209.5t382 78q-174 -158 -292 -423t-118 -560t118 -560t292 -423q-200 0 -382 78t-313.5 209.5t-209.5 313.5t-78 382zM1065 -573q90 149 287 228t450 79q150 0 286.5 58t235.5 157t157.5 235.5t58.5 286.5q-90 -148 -288 -227.5 t-448 -79.5h-2q-150 0 -286.5 -58t-235.5 -157t-157 -235.5t-58 -286.5zM1393 1966q174 -158 291.5 -423t117.5 -560q0 -370 -188 -700q88 24 188 24h2q186 0 340 43q110 133 171 294.5t61 338.5q0 200 -78 382t-210 313.5t-314 209.5t-381 78z" />
<glyph unicode="r" horiz-adv-x="2320" d="M164 0h737q-82 82 -82 199v1767h-655q82 -85 82 -199v-1568q0 -114 -82 -199zM1145 1065q79 71 131.5 195.5t52.5 261.5q0 136 -52 254t-132 190q163 0 292 -23t215 -62.5t143.5 -97t82.5 -123t25 -142.5t-25.5 -143t-82.5 -124t-143.5 -98.5t-215.5 -64t-291 -23.5z M1145 1065l356 -1065h737l-69 68q-59 62 -78 129l-236 702q-115 -55 -241 -55q-52 0 -106 10q-184 32 -316 164z" />
<glyph unicode="s" horiz-adv-x="2129" d="M164 2v737q55 -86 123 -184q201 -307 520 -498l94 -55q-116 21 -237 39q-86 15 -172 15q-165 0 -328 -54zM164 1395q0 85 28 159t74 127t110.5 97.5t131 73t142 51t137 34t123.5 19t93.5 9.5t53.5 3q-13 -1 -28 -6.5t-40 -30.5t-43 -65t-32 -120q-13 -75 -13 -173v-14 q0 -66 37 -126.5t99 -109t142 -94.5t168.5 -89.5t176.5 -88t168 -95t142 -104.5q61 -56 97 -126q35 -69 35 -144q0 -116 -50 -211q-50 -93 -123 -151t-171.5 -102t-184.5 -65t-176.5 -33.5t-131.5 -15t-64 -2.5q3 0 9 1.5t23 10t32.5 23.5t34 46t32 72.5t23.5 109t10 149.5 q0 64 -36.5 123t-98 107t-141.5 93.5t-168.5 89t-177 88.5t-168.5 96t-141.5 107t-97.5 127t-36 150zM1057 1968h6h2h-8zM1229 1968l235 -39q86 -15 173 -15l329 54v-737q-57 86 -125 184q-201 307 -520 498z" />
<glyph unicode="t" d="M82 1311v655h573l-71 -53q-254 -190 -422 -467zM737 0h738q-82 82 -82 199v1767h-574v-1767q0 -114 -82 -199zM1556 1966l70 -53q254 -190 422 -467l82 -135v655h-574z" />
<glyph unicode="u" horiz-adv-x="2293" d="M82 1966q82 -82 82 -199v-788q1 -202 66.5 -381t181 -311.5t285.5 -209.5t368 -77q-159 145 -243.5 405t-84.5 578v784q0 117 82 199h-737zM1229 0q198 0 368 77t285.5 209.5t181 311.5t66.5 381v788q0 117 82 199h-737q81 -81 81 -199v-784q0 -318 -84 -578t-243 -405z " />
<glyph unicode="v" horiz-adv-x="2293" d="M82 1966q35 -37 68 -70q53 -50 79 -127l590 -1769h656l204 655q-53 -86 -106 -170q-81 -131 -180 -239l-574 1720h-737zM1556 1966q19 -26 48 -63q196 -261 278 -586l2 -6q0 2 2 6q81 323 279 586l47 63h-656z" />
<glyph unicode="w" horiz-adv-x="3522" d="M82 1966l68 -68q56 -60 79 -129l590 -1769h656l204 655q-55 -86 -106 -170q-78 -124 -182 -237l-572 1718h-737zM1393 1966l67 -68q58 -61 80 -129l590 -1769h655l205 655q-55 -86 -106 -170q-76 -121 -183 -237l-571 1718h-737zM2785 1966q117 -157 159 -347 q22 -100 23 -201q0 -90 -18 -181v-8q131 219 201 338q42 68 94 139l197 260h-656z" />
<glyph unicode="x" horiz-adv-x="2048" d="M41 0l195 260q52 71 94 139q156 266 202 336q-2 0 -2 -6q-18 -90 -18 -180q0 -103 23 -203q43 -190 161 -346h-655zM123 1966h737q734 -1471 877 -1755q25 -48 61 -84l127 -127h-737q-736 1471 -879 1755q-19 42 -61 84zM532 735v2v-2zM1352 1966h655 q-125 -164 -197 -260q-52 -71 -94 -139l-200 -338v8q18 91 18 181q0 101 -22 201q-42 190 -160 347z" />
<glyph unicode="y" horiz-adv-x="2048" d="M82 1968q78 -78 125 -127q42 -42 61 -84l387 -772v-784q0 -114 -82 -199h738q-82 82 -82 199v600q0 76 53.5 130t128.5 54h64q-61 30 -103 59q-141 96 -215 248l-338 676h-737zM1311 1968q117 -157 159 -347q23 -100 23 -201q0 -90 -18 -181v-8q130 219 200 338 q42 68 94 139l197 260h-655z" />
<glyph unicode="z" horiz-adv-x="1966" d="M164 0h655l983 1966h-655zM164 1311v655h655q-82 -60 -162 -121q-162 -120 -297 -286zM1147 0q80 60 160 121q166 126 297 287l198 247v-655h-655z" />
<glyph unicode="&#xad;" horiz-adv-x="983" d="M82 776q0 170 120 291t290 121h409q0 -170 -120 -291t-289 -121h-410z" />
<glyph unicode="&#x2000;" horiz-adv-x="1065" />
<glyph unicode="&#x2001;" horiz-adv-x="2130" />
<glyph unicode="&#x2002;" horiz-adv-x="1065" />
<glyph unicode="&#x2003;" horiz-adv-x="2130" />
<glyph unicode="&#x2004;" horiz-adv-x="710" />
<glyph unicode="&#x2005;" horiz-adv-x="532" />
<glyph unicode="&#x2006;" horiz-adv-x="355" />
<glyph unicode="&#x2007;" horiz-adv-x="355" />
<glyph unicode="&#x2008;" horiz-adv-x="266" />
<glyph unicode="&#x2009;" horiz-adv-x="426" />
<glyph unicode="&#x200a;" horiz-adv-x="118" />
<glyph unicode="&#x2010;" horiz-adv-x="983" d="M82 776q0 170 120 291t290 121h409q0 -170 -120 -291t-289 -121h-410z" />
<glyph unicode="&#x2011;" horiz-adv-x="983" d="M82 776q0 170 120 291t290 121h409q0 -170 -120 -291t-289 -121h-410z" />
<glyph unicode="&#x2012;" horiz-adv-x="983" d="M82 776q0 170 120 291t290 121h409q0 -170 -120 -291t-289 -121h-410z" />
<glyph unicode="&#x2013;" horiz-adv-x="1188" d="M82 776q0 170 150 291t363 121h511q0 -170 -150 -291t-361 -121h-513z" />
<glyph unicode="&#x2014;" horiz-adv-x="2212" d="M82 776q0 170 300 291t725 121h1023q0 -170 -300 -291t-723 -121h-1025z" />
<glyph unicode="&#x2018;" horiz-adv-x="819" d="M82 1516q0 -135 96.5 -231.5t231.5 -96.5t231 96.5t96 231.5q0 131 -90.5 226t-220.5 101q38 94 98 169t131 118q-156 0 -288 -77t-208.5 -209t-76.5 -288h2q-2 -14 -2 -40z" />
<glyph unicode="&#x2019;" horiz-adv-x="819" d="M82 1802q0 -131 90.5 -226t220.5 -101q-38 -94 -98 -169t-131 -118q117 0 223 45.5t182.5 122t122 182.5t45.5 223h-2q2 14 2 41q0 135 -96 231.5t-231 96.5t-231.5 -96.5t-96.5 -231.5z" />
<glyph unicode="&#x201c;" horiz-adv-x="1570" d="M82 1516q0 -135 96.5 -231.5t231.5 -96.5t231 96.5t96 231.5q0 131 -90.5 226t-220.5 101q38 94 98 169t131 118q-155 0 -287 -77t-209 -209t-77 -288h2q0 -7 -1 -20t-1 -20zM834 1516q0 -135 96 -231.5t231 -96.5t231.5 96.5t96.5 231.5q0 131 -90.5 226t-220.5 101 q38 94 98 169t131 118q-156 0 -288 -77t-208.5 -209t-76.5 -288h2q-2 -14 -2 -40z" />
<glyph unicode="&#x201d;" horiz-adv-x="1570" d="M82 1802q0 -131 90.5 -226t220.5 -101q-38 -94 -98 -169t-131 -118q117 0 223 45.5t182.5 122t122 182.5t45.5 223h-2q2 14 2 41q0 135 -96 231.5t-231 96.5t-231.5 -96.5t-96.5 -231.5zM834 1802q0 -131 90.5 -226t220.5 -101q-38 -94 -98.5 -169t-131.5 -118 q155 0 287 76.5t209.5 208.5t77.5 288h-2q0 7 1 20.5t1 20.5q0 135 -96.5 231.5t-231.5 96.5t-231 -96.5t-96 -231.5z" />
<glyph unicode="&#x202f;" horiz-adv-x="426" />
<glyph unicode="&#x205f;" horiz-adv-x="532" />
<glyph unicode="&#x25fc;" horiz-adv-x="1966" d="M0 0v1966h1966v-1966h-1966z" />
</font>
</defs>
</svg>
